Demon Slayer – 1º Temporada

FICHA TÉCNICA

Título Original: Demon Slayer Kimetsu No Yaiba
Genero: Ação, Luta, Aventura
Ano de Lançamento: 2020
Tipo de Áudio: Trial Áudio
Legenda: Embutida (selecionável, Br)
Tamanho: 14 GB
Tempo de Duração: 23 minutos
Qualidade: WEB-DL 1080
Formato: MKV
Release: Gilgamesh
Servidor: BRupload

Sinopse: Japão, era Taisho. Tanjiro, um bondoso jovem que ganha a vida vendendo carvão, descobre que sua família foi massacrada por um demônio. E pra piorar, Nezuko, sua irmã mais nova e única sobrevivente, também foi transformada num demônio. Arrasado com esta sombria realidade, Tanjiro decide se tornar um matador de demônios para fazer sua irmã voltar a ser humana, e para matar o demônio que matou sua família. Um triste conto sobre dois irmãos, onde os destinos dos humanos e dos demônios se entrelaçam, começa agora.

banner

BAIXE SEM LIMITES NA VELOCIDADE MÁXIMA: CLIQUE AQUI

bannerPersonagens de anime

Bluray 1080P Remux

Download Demon Slayer [Demon Slayer Kimetsu No Yaiba] Bluray 1080P Remux

Mediainfo Demon Slayer [Demon Slayer Kimetsu No Yaiba] Bluray 1080P Remux

Spoiler

Video
ID : 1
Format : AVC
Format/Info : Advanced Video Codec
Format profile : [email protected]
Format settings : CABAC / 4 Ref Frames
Format settings, CABAC : Yes
Format settings, Reference : 4 frames
Codec ID : V_MPEG4/ISO/AVC
Duration : 23 min 51 s
Bit rate : 2 200 kb/s
Width : 1 920 pixels
Height : 1 080 pixels
Display aspect ratio : 16:9
Frame rate mode : Constant
Frame rate : 23.976 (24000/1001) FPS
Color space : YUV
Chroma subsampling : 4:2:0
Bit depth : 8 bits
Scan type : Progressive
Bits/(Pixel*Frame) : 0.044
Stream size : 366 MiB (83%)
Writing library : x264 core 157 r2935 545de2f
Encoding settings : cabac=1 / ref=2 / deblock=1:-1:-1 / analyse=0x1:0x111 / me=hex / subme=6 / psy=1 / psy_rd=1.00:0.15 / mixed_ref=1 / me_range=16 / chroma_me=1 / trellis=1 / 8x8dct=0 / cqm=0 / deadzone=21,11 / fast_pskip=1 / chroma_qp_offset=-3 / threads=18 / lookahead_threads=3 / sliced_threads=0 / nr=0 / decimate=1 / interlaced=0 / bluray_compat=0 / constrained_intra=0 / bframes=3 / b_pyramid=2 / b_adapt=1 / b_bias=0 / direct=1 / weightb=1 / open_gop=0 / weightp=1 / keyint=240 / keyint_min=24 / scenecut=40 / intra_refresh=0 / rc_lookahead=30 / rc=2pass / mbtree=1 / bitrate=2200 / ratetol=1.0 / qcomp=0.60 / qpmin=0 / qpmax=69 / qpstep=4 / cplxblur=20.0 / qblur=0.5 / vbv_maxrate=50000 / vbv_bufsize=62500 / nal_hrd=none / filler=0 / ip_ratio=1.40 / aq=1:1.00
Default : Yes
Forced : No
Color range : Limited
Color primaries : BT.709
Transfer characteristics : BT.709
Matrix coefficients : BT.709

Audio #1
ID : 2
Format : AC-3
Format/Info : Audio Coding 3
Commercial name : Dolby Digital
Codec ID : A_AC3
Duration : 23 min 51 s
Bit rate mode : Constant
Bit rate : 192 kb/s
Channel(s) : 2 channels
Channel layout : L R
Sampling rate : 48.0 kHz
Frame rate : 31.250 FPS (1536 SPF)
Compression mode : Lossy
Delay relative to video : -5 ms
Stream size : 32.8 MiB (7%)
Title : Brazilian
Language : Portuguese
Service kind : Complete Main
Default : Yes
Forced : No

Audio #2
ID : 3
Format : AC-3
Format/Info : Audio Coding 3
Commercial name : Dolby Digital
Codec ID : A_AC3
Duration : 23 min 51 s
Bit rate mode : Constant
Bit rate : 192 kb/s
Channel(s) : 2 channels
Channel layout : L R
Sampling rate : 48.0 kHz
Frame rate : 31.250 FPS (1536 SPF)
Compression mode : Lossy
Delay relative to video : -5 ms
Stream size : 32.8 MiB (7%)
Title : Stereo
Language : English
Service kind : Complete Main
Default : No
Forced : No

ASSISTA SEUS FILMES EM 4K SEMPRE PELO HD EXTERNO USB 3.0. CASO QUEIRA ASSISTIR PELO PC, UTILIZE O MEDIA PLAYER CLASSIC + MADVR, NUNCA EXECUTE PELO VLC PLAYER.

Updated: 22 de janeiro de 2022 — 09:19

Deixe um comentário

Baixar Bluray © 2019 Frontier Theme