After Life – 1º Temporada

FICHA TÉCNICA

Título Original: After Life
Diretor: Ricky Gervais
Genero: Comédia, Drama
Ano de Lançamento: 2020
Tipo de Áudio: Dual Áudio
Legenda: Embutida (selecionável)
Tamanho: 5,5 GB
Tempo de Duração: 28 minutos
Qualidade: WEB-DL 1080p
Formato: MKV
Release: Dinho
Servidor: BRupload

Sinopse: Devastado pela morte da mulher, um jornalista torna-se frio e distante, numa tentativa de afastar todos os que o querem ajudar.

banner

bannerRicky Gervais, Diane Morgan, Mandeep Dhillon, Ashley Jensen

Bluray 1080P

Download Vocês vão ter que me engolir [After Life] Bluray 1080P

Mediainfo After Life [Vocês vão ter que me engolir] Bluray 1080P

Spoiler

Video
ID : 1
Format : AVC
Format/Info : Advanced Video Codec
Format profile : [email protected]
Format settings : CABAC / 4 Ref Frames
Format settings, CABAC : Yes
Format settings, Reference : 4 frames
Codec ID : V_MPEG4/ISO/AVC
Duration : 28 min 34 s
Bit rate : 2 200 kb/s
Width : 1 920 pixels
Height : 1 080 pixels
Display aspect ratio : 16:9
Frame rate mode : Constant
Frame rate : 25.000 FPS
Color space : YUV
Chroma subsampling : 4:2:0
Bit depth : 8 bits
Scan type : Progressive
Bits/(Pixel*Frame) : 0.042
Stream size : 439 MiB (72%)
Writing library : x264 core 157 r2935 545de2f
Encoding settings : cabac=1 / ref=1 / deblock=1:-1:-1 / analyse=0x3:0x113 / me=hex / subme=2 / psy=1 / psy_rd=1.00:0.15 / mixed_ref=0 / me_range=16 / chroma_me=1 / trellis=0 / 8x8dct=1 / cqm=0 / deadzone=21,11 / fast_pskip=1 / chroma_qp_offset=0 / threads=24 / lookahead_threads=8 / sliced_threads=0 / nr=0 / decimate=1 / interlaced=0 / bluray_compat=0 / constrained_intra=0 / bframes=3 / b_pyramid=2 / b_adapt=1 / b_bias=0 / direct=1 / weightb=1 / open_gop=0 / weightp=1 / keyint=250 / keyint_min=25 / scenecut=40 / intra_refresh=0 / rc_lookahead=10 / rc=2pass / mbtree=1 / bitrate=2200 / ratetol=1.0 / qcomp=0.60 / qpmin=0 / qpmax=69 / qpstep=4 / cplxblur=20.0 / qblur=0.5 / vbv_maxrate=62500 / vbv_bufsize=78125 / nal_hrd=none / filler=0 / ip_ratio=1.40 / aq=1:1.00
Default : Yes
Forced : No
Color range : Limited
Color primaries : BT.709
Transfer characteristics : BT.709
Matrix coefficients : BT.709

Audio #1
ID : 2
Format : AC-3
Format/Info : Audio Coding 3
Commercial name : Dolby Digital
Codec ID : A_AC3
Duration : 28 min 34 s
Bit rate mode : Constant
Bit rate : 384 kb/s
Channel(s) : 6 channels
Channel layout : L R C LFE Ls Rs
Sampling rate : 48.0 kHz
Frame rate : 31.250 FPS (1536 SPF)
Compression mode : Lossy
Delay relative to video : -5 ms
Stream size : 78.5 MiB (13%)
Title : Brazilian
Language : Portuguese
Service kind : Complete Main
Default : Yes
Forced : No

Audio #2
ID : 3
Format : AC-3
Format/Info : Audio Coding 3
Commercial name : Dolby Digital
Codec ID : A_AC3
Duration : 28 min 34 s
Bit rate mode : Constant
Bit rate : 384 kb/s
Channel(s) : 6 channels
Channel layout : L R C LFE Ls Rs
Sampling rate : 48.0 kHz
Frame rate : 31.250 FPS (1536 SPF)
Compression mode : Lossy
Delay relative to video : -5 ms
Stream size : 78.5 MiB (13%)
Title : Surround
Language : English
Service kind : Complete Main
Default : No
Forced : No

ASSISTA SEUS FILMES EM 4K SEMPRE PELO HD EXTERNO USB 3.0. CASO QUEIRA ASSISTIR PELO PC, UTILIZE O MEDIA PLAYER CLASSIC + MADVR, NUNCA EXECUTE PELO VLC PLAYER.

Updated: 19 de janeiro de 2022 — 08:03

Deixe um comentário

Baixar Bluray © 2019 Frontier Theme